<?xml version="1.0" standalone="no"?>
<!DOCTYPE svg PUBLIC "-//W3C//DTD SVG 1.1//EN" "http://www.w3.org/Graphics/SVG/1.1/DTD/svg11.dtd" >
<svg xmlns="http://www.w3.org/2000/svg">
<metadata>Generated by IcoMoon</metadata>
<defs>
<font id="icomoon" horiz-adv-x="1024">
<font-face units-per-em="1024" ascent="960" descent="-64" />
<missing-glyph horiz-adv-x="1024" />
<glyph unicode="&#x20;" horiz-adv-x="512" d="" />
<glyph unicode="&#xe900;" glyph-name="add" d="M968.428 519.442h-384.988v384.99c0 17.538-23.815 55.566-71.442 55.566s-71.442-38.030-71.442-55.566v-384.992h-384.99c-17.536 0.002-55.566-23.813-55.566-71.438s38.030-71.442 55.566-71.442h384.992v-384.992c0-17.534 23.813-55.566 71.442-55.566s71.442 38.032 71.442 55.566v384.992h384.992c17.534 0 55.566 23.813 55.566 71.442s-38.036 71.44-55.572 71.44z" />
<glyph unicode="&#xe901;" glyph-name="back-arrow-circular-symbol" d="M512-63.977c-282.33 0-512 229.67-512 511.977s229.67 511.977 512 511.977 512-229.67 512-511.977-229.716-511.977-512-511.977zM512 925.256c-263.164 0-477.279-214.091-477.279-477.256 0-263.141 214.115-477.256 477.279-477.256s477.279 214.115 477.279 477.256c0 263.164-214.115 477.256-477.279 477.256zM570.98 268.26c-4.444 0-8.889 1.667-12.268 5.092l-169.625 169.764c-6.759 6.782-6.759 17.777 0 24.56l169.625 169.741c6.782 6.782 17.777 6.782 24.56 0s6.782-17.777 0-24.56l-157.357-157.473 157.357-157.519c6.759-6.782 6.759-17.8 0-24.56-3.403-3.38-7.847-5.046-12.291-5.046z" />
<glyph unicode="&#xe902;" glyph-name="business" d="M369.562 602.556c-5.711 14.831-15.378 24.796-38.379 24.796h-142.872c-19.687 0-29.35-10.193-35.076-24.313l-70.641-174.090c-2.482-6.119-3.33-12.617-2.581-18.999-16.214-9.325-27.136-26.197-27.262-45.418-0.010-1.353 0.051-2.696 0.146-4.032l-30.186 0.206c-12.050 0-21.921-9.805-22.004-21.856l-0.706-102.685c-0.041-5.861 2.218-11.397 6.354-15.591 4.138-4.193 9.643-6.525 15.504-6.564l146.738-1.007v-110.367c0-23.491 19.114-42.603 42.607-42.603 23.491 0 42.603 19.112 42.603 42.603v211.823h18.744v-211.823c0-23.491 19.114-42.603 42.607-42.603s42.607 19.112 42.607 42.603v315.243l7.105-18.453c5.552-14.417 19.112-24.137 34.546-24.759 0.517-0.021 1.034-0.033 1.553-0.033 4.751 0 9.43 0.871 13.904 2.589 19.907 7.666 29.863 30.1 22.199 50.009l-67.509 175.324zM138.904 359.913l-59.676 0.408c-0.208 1.33-0.344 2.671-0.334 4.033 0.060 9.117 5.12 17.183 12.788 22.107 3.489-3.34 7.6-6.038 12.211-7.909 4.655-1.887 9.544-2.846 14.532-2.846 0.292 0 0.585 0.004 0.877 0.012 5.293 0.119 10.372 1.333 15.014 3.423 3.18-4.366 5.023-9.593 4.984-15.197-0.010-1.374-0.169-2.712-0.397-4.032zM166.845 359.721l-1.602 0.012c0.115 1.332 0.196 2.673 0.206 4.028 0.087 12.691-4.523 24.393-12.269 33.63 0.393 0.805 0.766 1.625 1.106 2.465l12.559 30.954v-71.088zM266.109 640.951c53.766 0 97.51 43.742 97.51 97.509s-43.744 97.509-97.51 97.509c-53.753 0-97.483-43.742-97.483-97.509-0.002-53.766 43.728-97.509 97.483-97.509zM1023.296 338.85c-0.084 12.052-9.954 21.856-22.158 21.855l-30.032-0.204c0.095 1.337 0.156 2.677 0.146 4.030-0.126 19.39-11.247 36.383-27.696 45.655 0.783 6.438-0.049 13-2.554 19.17l-70.643 174.088c-5.484 13.521-16.769 24.416-36.653 24.416h-141.142c-21.693 0-32.172-9.612-38.072-24.42l-69.552-174.523c-7.9-19.819 1.798-42.368 21.615-50.268 4.595-1.825 9.416-2.751 14.324-2.751 0.365 0 0.733 0.004 1.098 0.016 15.442 0.445 29.117 10.007 34.834 24.354l9.379 23.534-0.441-321.166c0-23.491 19.114-42.603 42.607-42.603s42.607 19.112 42.607 42.603v219.778h19.232v-219.776c0-23.491 19.112-42.603 42.603-42.603 23.493 0 42.607 19.112 42.607 42.603v110.367l146.736 1.007c5.863 0.039 11.368 2.371 15.506 6.564 4.136 4.193 6.393 9.731 6.354 15.591l-0.706 102.683zM858.755 359.732l-1.557-0.012v70.378l12.106-29.84c0.42-1.034 0.892-2.037 1.394-3.021-7.672-9.212-12.234-20.855-12.149-33.484 0.012-1.353 0.093-2.692 0.206-4.022zM944.769 360.321l-59.676-0.41c-0.227 1.32-0.387 2.657-0.397 4.028-0.039 5.68 1.851 10.973 5.105 15.37 4.498-1.946 9.395-3.069 14.487-3.186 0.292-0.008 0.585-0.012 0.877-0.012 4.986 0 9.877 0.958 14.534 2.846 4.576 1.856 8.654 4.531 12.126 7.836 7.95-4.893 13.218-13.125 13.278-22.442 0.010-1.361-0.124-2.704-0.334-4.030zM757.891 640.951c53.753 0 97.483 43.742 97.483 97.509s-43.73 97.509-97.483 97.509c-53.766 0-97.51-43.742-97.51-97.509s43.744-97.509 97.51-97.509zM433.041 613.828h80.44l0.087-16.214c0.029-5.237 2.98-8.757 7.344-8.757 1.678 0 3.433 0.521 5.213 1.547l59.159 34.116c3.172 1.827 4.912 4.381 4.898 7.19-0.016 2.809-1.781 5.344-4.974 7.14l-59.522 33.477c-3.814 2.146-7.666 1.919-10.075-0.502-1.586-1.596-2.418-3.962-2.403-6.842l0.087-16.188h-80.253c-9.657 0-17.483-7.826-17.483-17.483-0.004-9.659 7.824-17.485 17.481-17.485zM597.451 539.442c0 9.657-7.826 17.483-17.483 17.483h-80.444l-0.087 16.214c-0.029 5.237-2.98 8.757-7.344 8.757-1.678 0-3.433-0.521-5.213-1.547l-59.159-34.116c-3.172-1.827-4.912-4.381-4.898-7.19s1.781-5.344 4.974-7.14l59.522-33.477c1.759-0.989 3.491-1.493 5.141-1.493h0.002c1.926 0 3.633 0.688 4.93 1.992 1.586 1.596 2.418 3.962 2.403 6.842l-0.087 16.188h80.257c9.659 0.004 17.487 7.83 17.487 17.487z" />
<glyph unicode="&#xe903;" glyph-name="calendar-with-spring-binder-and-date-blocks" d="M965.716 791.996c-14.46 14.476-31.617 21.716-51.425 21.716h-73.134v54.859c0 25.138-8.96 46.663-26.863 64.568-17.913 17.905-39.426 26.861-64.576 26.861h-36.562c-25.148 0-46.669-8.956-64.574-26.863-17.911-17.903-26.863-39.43-26.863-64.568v-54.859h-219.417v54.859c0 25.138-8.956 46.663-26.863 64.568-17.903 17.907-39.426 26.863-64.574 26.863h-36.568c-25.142 0-46.667-8.956-64.574-26.863-17.903-17.903-26.861-39.43-26.861-64.568v-54.859h-73.136c-19.814 0-36.954-7.239-51.431-21.716-14.476-14.474-21.716-31.623-21.716-51.431v-731.429c0-19.794 7.239-36.938 21.716-51.423 14.474-14.472 31.615-21.714 51.431-21.714h804.553c19.808 0 36.966 7.239 51.425 21.714 14.478 14.478 21.72 31.631 21.72 51.423v731.431c-0.002 19.814-7.235 36.954-21.706 51.431zM274.29 9.144h-164.566v164.578h164.566v-164.578zM274.29 210.284h-164.566v182.847h164.566v-182.847zM274.29 429.719h-164.566v164.564h164.566v-164.564zM261.441 691.142c-3.621 3.621-5.428 7.898-5.428 12.855v164.566c0 4.952 1.807 9.241 5.428 12.855 3.621 3.621 7.898 5.428 12.855 5.428h36.568c4.952 0 9.241-1.807 12.855-5.428 3.621-3.617 5.432-7.904 5.432-12.855v-164.566c0-4.96-1.819-9.237-5.432-12.855-3.617-3.621-7.898-5.428-12.855-5.428h-36.568c-4.952-0.002-9.235 1.807-12.855 5.428zM493.719 9.144h-182.861v164.578h182.861v-164.578zM493.719 210.284h-182.861v182.847h182.861v-182.847zM493.719 429.719h-182.861v164.564h182.861v-164.564zM713.156 9.144h-182.859v164.578h182.859v-164.578zM713.156 210.284h-182.859v182.847h182.859v-182.847zM713.156 429.719h-182.859v164.564h182.859v-164.564zM700.293 691.142c-3.617 3.621-5.418 7.898-5.418 12.855v164.566c0 4.952 1.801 9.241 5.418 12.855 3.619 3.621 7.904 5.428 12.863 5.428h36.562c4.96 0 9.241-1.807 12.863-5.428 3.619-3.617 5.418-7.904 5.418-12.855v-164.566c0-4.96-1.807-9.237-5.418-12.855-3.617-3.621-7.904-5.428-12.863-5.428h-36.562c-4.958-0.002-9.259 1.807-12.863 5.428zM914.278 9.144h-164.574v164.578h164.574v-164.578zM914.278 210.284h-164.574v182.847h164.574v-182.847zM914.278 429.719h-164.574v164.564h164.574v-164.564z" />
<glyph unicode="&#xe904;" glyph-name="clock" d="M689.504 430.848c0-26.528-21.504-48-48-48h-128.672c-26.528 0-48 21.472-48 48v217.632c0 26.528 21.472 48 48 48 26.496 0 48-21.472 48-48v-169.632h80.672c26.496 0 48-21.472 48-48zM1024 448c0-282.304-229.696-512-512-512s-512 229.696-512 512 229.696 512 512 512c282.304 0 512-229.696 512-512zM924.64 397.344h-79.328c-26.496 0-48 21.472-48 48s21.504 48 48 48h80.128c-20.928 192.32-173.504 345.472-365.44 367.68v-82.336c0-26.528-21.504-48-48-48s-48 21.472-48 48v82.336c-191.936-22.176-344.48-175.328-365.376-367.68h80.064c26.464 0 48-21.472 48-48s-21.536-48-48-48h-79.296c23.232-189.792 174.432-340.352 364.608-362.336v76.992c0 26.528 21.504 48 48 48s48-21.472 48-48v-76.992c190.176 21.92 341.44 172.544 364.64 362.336z" />
<glyph unicode="&#xe905;" glyph-name="clock-1" d="M512 938c-270.2 0-490-219.8-490-490s219.8-490 490-490 490 219.8 490 490-219.8 490-490 490zM918.4 427.2h41.4c-5-108-48.2-206-116.6-281l-29.2 29.2c-8.2 8.2-21.4 8.2-29.4 0-8.2-8.2-8.2-21.4 0-29.4l29.2-29.2c-75-68.4-173-111.6-281-116.6v41.4c0 11.6-9.4 20.8-20.8 20.8-11.6 0-20.8-9.4-20.8-20.8v-41.4c-108 5-206 48.2-281 116.6l29.2 29.2c8.2 8.2 8.2 21.4 0 29.4-8.2 8.2-21.4 8.2-29.4 0l-29.2-29.2c-68.2 75-111.6 173-116.6 280.8h41.4c11.6 0 20.8 9.4 20.8 20.8s-9.4 20.8-20.8 20.8h-41.4c5 108 48.2 206 116.6 281l29.2-29.2c8.2-8.2 21.4-8.2 29.4 0 8.2 8.2 8.2 21.4 0 29.4l-29.2 29.2c75 68.4 173 111.6 281 116.6v-41.4c0-11.6 9.4-20.8 20.8-20.8 11.6 0 20.8 9.4 20.8 20.8v41.6c108-5 206-48.2 281-116.6l-29.2-29.2c-8.2-8.2-8.2-21.4 0-29.4 8.2-8.2 21.4-8.2 29.4 0l29.2 29.2c68.4-75 111.6-173 116.6-281h-41.4c-11.6 0-20.8-9.4-20.8-20.8s9.2-20.8 20.8-20.8zM728.6 468.8h-195.8v288.8c0 11.6-9.4 20.8-20.8 20.8-11.6 0-20.8-9.4-20.8-20.8v-288.8h-85.4c-11.6 0-20.8-9.4-20.8-20.8s9.4-20.8 20.8-20.8h85.4v-78.8c0-11.6 9.4-20.8 20.8-20.8 11.6 0 20.8 9.4 20.8 20.8v78.8h195.8c11.6 0 20.8 9.4 20.8 20.8s-9.4 20.8-20.8 20.8z" />
<glyph unicode="&#xe906;" glyph-name="close" d="M916.122 960h-808.245c-59.584 0-107.878-48.503-107.878-107.878v-808.245c0-59.584 48.503-107.878 107.878-107.878h808.245c59.584 0 107.878 48.503 107.878 107.878v808.245c0 59.374-48.503 107.878-107.878 107.878zM972.779 43.878c0-31.151-25.506-56.657-56.657-56.657h-808.245c-31.151 0-56.657 25.506-56.657 56.657v808.245c0 31.151 25.506 56.657 56.657 56.657h808.245c31.151 0 56.657-25.506 56.657-56.657v-808.245zM666.917 602.917c-10.035 10.035-26.133 10.035-36.168 0l-118.749-118.749-118.749 118.749c-10.035 10.035-26.133 10.035-36.168 0s-10.035-26.133 0-36.168l118.749-118.749-118.749-118.749c-10.035-10.035-10.035-26.133 0-36.168 5.018-5.018 11.499-7.526 18.189-7.526s13.171 2.509 18.189 7.526l118.749 118.749 118.749-118.749c5.018-5.018 11.499-7.526 18.189-7.526s13.171 2.509 18.189 7.526c10.035 10.035 10.035 26.133 0 36.168l-119.167 118.749 118.749 118.749c10.035 10.035 10.035 26.133 0 36.168z" />
<glyph unicode="&#xe907;" glyph-name="contact" d="M1000.727 820.364h-977.455c-12.87 0-23.273-10.403-23.273-23.273v-698.182c0-12.87 10.403-23.273 23.273-23.273h977.455c12.847 0 23.273 10.403 23.273 23.273v698.182c0 12.87-10.426 23.273-23.273 23.273zM977.455 178.479l-288.303 288.279-32.908-32.908 311.668-311.668h-911.825l311.668 311.668-32.908 32.908-288.303-288.279v595.34h930.909v-595.34zM930.42 773.818l-418.42-418.42-418.42 418.42h-47.034v-18.781l449.001-449.001c9.1-9.1 23.808-9.1 32.908 0l449.001 449.001v18.781h-47.034z" />
<glyph unicode="&#xe908;" glyph-name="email-filled-closed-envelope" d="M513.285 379.71h0.219c7.722 0 15.353 2.24 21.527 6.32l1.675 1.076c0.365 0.238 0.746 0.453 1.129 0.709l19.506 16.138 465.584 384.207c-0.964 1.33-2.605 2.24-4.354 2.24h-1013.163c-1.257 0-2.423-0.455-3.351-1.22l487.111-401.492c6.139-5.083 14.898-7.98 24.116-7.98zM0 735.96v-569.508l348.946 281.886-348.946 287.622zM675.418 446.426l348.582-280.119v567.759l-348.582-287.64zM564.59 354.995c-13.896-11.401-32.072-17.686-51.16-17.686-19.16 0-37.319 6.248-51.178 17.595l-79.921 65.914-382.332-308.808v-0.982c0-2.933 2.513-5.428 5.481-5.428h1013.109c2.913 0 5.408 2.495 5.408 5.446v0.91l-382.002 306.929-77.406-63.891z" />
<glyph unicode="&#xe909;" glyph-name="gesture" d="M281.254 232.44c-8.107 0-14.687 6.58-14.687 14.687v480.585c0 56.691 43.503 102.808 97.022 102.808s97.022-46.117 97.022-102.808v-312.449c0-8.107-6.58-14.687-14.687-14.687s-14.687 6.58-14.687 14.687v312.449c0 40.477-30.343 73.434-67.648 73.434s-67.648-32.957-67.648-73.434v-480.585c0-8.107-6.58-14.687-14.687-14.687zM344.848-64c-3.76 0-7.52 1.439-10.398 4.289l-217.719 217.719c-51.551 51.522-62.713 124.222-24.88 162.055 37.833 37.863 100.341 36.864 139.379-2.174l60.393-60.393c5.728-5.728 5.728-15.039 0-20.767s-15.039-5.728-20.767 0l-60.393 60.393c-27.582 27.553-71.466 28.551-97.844 2.174-25.937-25.937-14.54-81.13 24.88-120.521l217.719-217.719c5.728-5.728 5.728-15.039 0-20.767-2.849-2.849-6.609-4.289-10.369-4.289zM610.593 383.774c-8.107 0-14.687 6.58-14.687 14.687v74.051c0 32.752-30.343 59.364-67.648 59.364-37.334 0-67.677-26.642-67.677-59.364v-74.051c0-8.107-6.58-14.687-14.687-14.687s-14.687 6.58-14.687 14.687v74.051c0 48.937 43.532 88.738 97.051 88.738s97.022-39.801 97.022-88.738v-74.051c0-8.107-6.58-14.687-14.687-14.687zM775.204 383.774c-8.107 0-14.687 6.58-14.687 14.687v61.802c0 25.555-30.96 47.116-67.618 47.116s-67.648-21.59-67.648-47.116v-61.802c0-8.107-6.58-14.687-14.687-14.687s-14.687 6.58-14.687 14.687v61.802c0 42.181 43.503 76.489 97.022 76.489 53.46 0 96.992-34.309 96.992-76.489v-61.802c0-8.107-6.55-14.687-14.687-14.687zM939.873 195.253c-8.107 0-14.687 6.58-14.687 14.687v202.004c0 40.477-30.343 73.434-67.648 73.434-39.86 0-67.648-19.034-67.648-36.1v-50.787c0-8.107-6.58-14.687-14.687-14.687s-14.687 6.58-14.687 14.687v50.787c0 36.717 42.621 65.474 97.022 65.474 53.49 0 97.022-46.117 97.022-102.808v-202.004c0-8.107-6.58-14.687-14.687-14.687zM822.378-63.883h-476.384c-8.107 0-15.245 6.58-15.245 14.687s6.051 14.687 14.158 14.687h477.442c56.691 0 102.808 46.117 102.808 102.808v158.53c0 8.107 6.58 14.687 14.687 14.687s14.687-6.58 14.687-14.687v-158.501c0.029-72.906-59.276-132.211-132.153-132.211zM561.862 714.817c-8.107 0-14.687 6.58-14.687 14.687v17.536c0 101.222-82.364 183.586-183.586 183.586s-183.586-82.364-183.586-183.586v-17.536c0-8.107-6.58-14.687-14.687-14.687s-14.687 6.58-14.687 14.687v17.536c0 117.436 95.524 212.96 212.96 212.96s212.96-95.524 212.96-212.96v-17.536c0-8.137-6.58-14.687-14.687-14.687z" />
<glyph unicode="&#xe90a;" glyph-name="hexagon" d="M1024 448.002l-162.353 281.305h-250.27l-124.293 215.374h-324.741l-162.344-281.305 124.293-215.374-124.293-215.374 162.344-281.305h324.745l124.293 215.374h250.27l162.348 281.305zM238.49 812.82h172.449l86.246-149.443-86.246-149.443h-172.449l-86.246 149.443 86.246 149.443zM410.939 83.184h-172.449l-86.246 149.443 86.246 149.443h172.449l86.246-149.443-86.246-149.443zM613.057 298.559l-86.246 149.443 86.246 149.443h172.445l86.246-149.443-86.246-149.443h-172.445z" />
<glyph unicode="&#xe90b;" glyph-name="letter" d="M1022.201 365.982l-175.924 424.718c-2.389 5.77-6.972 10.353-12.742 12.742-5.77 2.392-12.249 2.392-18.018 0l-585.812-242.657c-5.77-2.389-10.353-6.972-12.742-12.742s-2.389-12.252 0.003-18.018l175.949-424.718c3.754-9.069 12.522-14.54 21.76-14.54 3.004 0 6.055 0.581 9 1.799l585.787 242.657c12.010 4.975 17.714 18.747 12.738 30.76zM655.045 362.441l-358.1 175.23 487.374 201.881-129.274-377.11zM658.316 308.421c3.258-1.598 6.799-2.398 10.346-2.398 3.057 0 6.121 0.593 9.012 1.792 6.24 2.583 11.068 7.725 13.259 14.116l50.445 147.163 202.782-109.956-491.229-203.488 65.641 221.148 139.743-68.379zM954.121 407.302l-197.254 106.958 69.261 202.047 127.993-309.005zM283.817 491.677l191.873-93.89-63.855-215.131-128.018 309.021zM23.543 436.979h136.663c13.002 0 23.543 10.538 23.543 23.543s-10.541 23.543-23.543 23.543h-136.663c-13.002 0-23.543-10.538-23.543-23.543 0-13.002 10.541-23.543 23.543-23.543zM257.634 216.373h-234.091c-13.002 0-23.543-10.538-23.543-23.543s10.541-23.543 23.543-23.543h234.091c13.002 0 23.543 10.538 23.543 23.543s-10.541 23.543-23.543 23.543zM23.543 303.134h185.391c13.002 0 23.543 10.538 23.543 23.543s-10.541 23.543-23.543 23.543h-185.391c-13.002 0-23.543-10.538-23.543-23.543s10.541-23.543 23.543-23.543z" />
<glyph unicode="&#xe90c;" glyph-name="letter-1" d="M1005.932 624.070c-6.191 0-10.837-3.241-12.543-4.634l-300.848-264.356c-5.844-5.262-13.157-8.042-21.146-8.042-8.012 0-15.596 2.847-21.482 8.136l-291.698 255.503c-2.442 2.314-8.217 6.899-15.554 6.899-1.84 0-17.974-0.63-17.974-22.392v-392.242c0-25.544 20.608-46.327 45.941-46.327h608.287c25.284 0 45.089 20.35 45.089 46.327v398.314c-0.003 22.173-16.223 22.814-18.071 22.814zM352.392 703.387l293.544-253.255c2.717-2.614 11.752-10.173 25.45-10.173 13.090 0 22.356 7.498 24.088 9.005l297.382 259.461c4.040 3.791 12.446 11.677 8.445 21.798-2.203 5.564-7.587 9.158-13.723 9.158h-625.622c-7.518 0-14.194-4.271-17.017-10.881-1.909-4.479-3.544-13.637 6.999-24.637l0.455-0.475zM222.005 586.753h-83.252c-15.302 0-27.751-12.449-27.751-27.751v-19.425c0-15.302 12.449-27.751 27.751-27.751h83.252c15.302 0 27.751 12.449 27.751 27.751v19.425c0 15.302-12.449 27.751-27.751 27.751zM222.005 464.65h-138.753c-15.302 0-27.751-12.449-27.751-27.751v-19.425c0-15.302 12.449-27.751 27.751-27.751h138.753c15.302 0 27.751 12.449 27.751 27.751v19.425c0 15.302-12.449 27.751-27.751 27.751zM222.005 342.547h-194.255c-15.302 0-27.751-12.449-27.751-27.751v-19.425c0-15.302 12.449-27.751 27.751-27.751h194.255c15.302 0 27.751 12.449 27.751 27.751v19.425c0 15.302-12.449 27.751-27.751 27.751z" />
<glyph unicode="&#xe90d;" glyph-name="luxury" d="M512 13.576c-4.561 0-8.937 2.017-11.854 5.523l-496.485 589.576c-4.655 5.523-4.903 13.529-0.559 19.301l186.182 248.242c2.917 3.91 7.54 6.206 12.412 6.206h620.606c4.872 0 9.495-2.296 12.412-6.206l186.182-248.242c4.344-5.772 4.096-13.777-0.559-19.301l-496.485-589.576c-2.917-3.506-7.292-5.523-11.854-5.523zM35.344 619.225l476.656-566.055 476.656 566.055-174.111 232.169h-605.091l-174.111-232.169zM1008.485 603.152h-992.97c-8.564 0-15.515 6.92-15.515 15.515s6.951 15.515 15.515 15.515h992.97c8.564 0 15.515-6.951 15.515-15.515s-6.951-15.515-15.515-15.515zM512 13.576c-1.552 0-3.134 0.217-4.655 0.714-8.192 2.576-12.722 11.295-10.116 19.456l186.182 589.576c2.576 8.161 11.357 12.753 19.456 10.116 8.192-2.576 12.722-11.295 10.116-19.456l-186.182-589.576c-2.079-6.609-8.223-10.83-14.801-10.83zM512 13.576c-6.578 0-12.722 4.22-14.801 10.861l-186.182 589.576c-2.576 8.161 1.955 16.88 10.116 19.456 8.192 2.638 16.88-1.955 19.456-10.116l186.182-589.576c2.576-8.161-1.955-16.88-10.116-19.456-1.52-0.528-3.103-0.745-4.655-0.745zM325.818 603.152c-5.71 0-11.171 3.134-13.902 8.564l-124.121 248.242c-3.817 7.664-0.714 16.974 6.951 20.821 7.696 3.817 16.974 0.714 20.821-6.951l124.121-248.242c3.848-7.664 0.714-16.974-6.951-20.821-2.203-1.086-4.561-1.614-6.92-1.614zM325.818 603.152c-3.227 0-6.485 1.024-9.278 3.103-6.858 5.151-8.254 14.864-3.103 21.721l186.182 248.242c5.151 6.858 14.864 8.223 21.721 3.103 6.858-5.151 8.254-14.864 3.103-21.721l-186.182-248.242c-3.072-4.065-7.727-6.206-12.443-6.206zM698.182 603.152c-4.717 0-9.371 2.141-12.412 6.206l-186.182 248.242c-5.151 6.858-3.755 16.57 3.103 21.721 6.827 5.182 16.57 3.786 21.721-3.103l186.182-248.242c5.151-6.858 3.755-16.57-3.103-21.721-2.793-2.11-6.051-3.103-9.309-3.103zM698.182 603.152c-2.327 0-4.686 0.528-6.92 1.645-7.664 3.848-10.768 13.157-6.951 20.821l124.121 248.242c3.848 7.664 13.126 10.768 20.821 6.951 7.664-3.848 10.768-13.157 6.951-20.821l-124.121-248.242c-2.762-5.461-8.223-8.595-13.902-8.595z" />
<glyph unicode="&#xe90e;" glyph-name="magnifying-glass" d="M265.442 336.99v448.936l215.014 103.291v-283.13c17.168 10.786 35.518 19.411 54.679 25.782v256.553l212.889-106.413v-175.226c20.14-12.511 38.555-27.904 54.679-45.926v218.067l151.308 48.348v-452.222l-91.399-29.199c-3.851-20.469-10.286-40.446-19.13-59.557l2.972-3.055 143.227 45.79c11.33 3.613 19.011 14.133 19.011 26.046v509.655c0 8.724-4.161 16.922-11.213 22.1-7.054 5.144-16.16 6.567-24.457 3.949l-195.384-62.448-257.615 128.807c-7.531 3.753-16.407 3.816-24.074 0.202l-258.177-123.998-194.355 88.161c-8.462 3.849-18.317 3.082-26.115-1.924-7.814-5.046-12.525-13.706-12.525-22.995v-509.655c0-10.718 6.271-20.473 16.043-24.919l205.985-93.436c7.416-3.351 15.86-3.251 23.143 0.265l121.409 58.332c-4.963 18.582-7.898 37.528-8.543 56.57l-97.37-46.748zM59.457 854.147l151.306-68.652v-449.567l-151.306 68.621v449.598zM994.905 81.766l-157.906 162.45c-13.24-19.742-29.068-38.226-47.912-54.417-18.88-16.26-39.455-29.099-60.954-39.153l136.735-180.603c14.269-18.88 35.77-31.059 59.326-33.579 3.039-0.331 6.056-0.467 9.074-0.467 20.477 0 40.384 7.269 56.060 20.742 17.984 15.429 28.735 37.624 29.799 61.317 1.129 23.657-7.698 46.721-24.222 63.71zM780.526 534.978c-43.151 50.235-104.354 76.016-165.887 76.016-50.418 0-101.067-17.318-142.232-52.657-91.278-78.503-101.794-216.703-23.291-308.083 43.168-50.168 104.337-75.95 165.839-75.95 50.414 0 101.052 17.288 142.209 52.657 91.347 78.441 101.8 216.669 23.362 308.016zM614.885 247.767c-40.813 0-81.375 17.086-110.029 50.401-52.092 60.654-45.124 152.333 15.464 204.425 27.325 23.46 60.954 34.937 94.398 34.937 40.848 0 81.427-17.122 110.062-50.437 52.059-60.588 45.090-152.333-15.495-204.392-27.342-23.453-60.952-34.935-94.4-34.935zM568.202 476.55c-7.333 1.593-15.131 0.298-21.304-4.98-43.53-37.395-48.475-103.26-11.113-146.791 5.275-6.104 12.84-8.593 20.34-8.027 5.011 0.329 10.12 1.86 14.237 5.438 10.284 8.795 11.411 24.257 2.651 34.51-19.842 23.060-17.224 57.932 5.871 77.71 10.253 8.858 11.415 24.322 2.655 34.542-3.582 4.213-8.393 6.433-13.338 7.598z" />
<glyph unicode="&#xe90f;" glyph-name="mathematics" d="M1007.66 529.702c9.026 0 16.34 7.316 16.34 16.34s-7.314 16.34-16.34 16.34c-210.236 0-381.277 171.041-381.277 381.277 0 9.024-7.314 16.34-16.34 16.34s-16.34-7.316-16.34-16.34c0-228.258 185.699-413.957 413.957-413.957zM16.34 366.298c-9.026 0-16.34-7.316-16.34-16.34s7.314-16.34 16.34-16.34c210.236 0 381.277-171.041 381.277-381.277 0-9.024 7.314-16.34 16.34-16.34s16.34 7.316 16.34 16.34c0 228.258-185.699 413.957-413.957 413.957zM544.681 266.44c9.026 0 16.34 7.316 16.34 16.34s-7.314 16.34-16.34 16.34h-16.34v297.757h16.34c9.026 0 16.34 7.316 16.34 16.34s-7.314 16.34-16.34 16.34h-16.34v132.54h16.34c9.026 0 16.34 7.316 16.34 16.34s-7.314 16.34-16.34 16.34h-16.34v132.538h16.34c9.026 0 16.34 7.316 16.34 16.34s-7.314 16.34-16.34 16.34h-65.362c-9.026 0-16.34-7.316-16.34-16.34s7.314-16.34 16.34-16.34h16.34v-132.538h-16.34c-9.026 0-16.34-7.316-16.34-16.34s7.314-16.34 16.34-16.34h16.34v-132.538h-16.34c-9.026 0-16.34-7.316-16.34-16.34s7.314-16.34 16.34-16.34h16.34v-132.54h-132.538v16.34c0 9.024-7.314 16.34-16.34 16.34s-16.34-7.316-16.34-16.34v-16.34h-132.54v16.34c0 9.024-7.314 16.34-16.34 16.34s-16.34-7.316-16.34-16.34v-16.34h-132.538v16.34c0 9.024-7.314 16.34-16.34 16.34s-16.34-7.316-16.34-16.34v-65.362c0-9.024 7.314-16.34 16.34-16.34s16.34 7.316 16.34 16.34v16.34h132.538v-16.34c0-9.024 7.314-16.34 16.34-16.34s16.34 7.316 16.34 16.34v16.34h132.54v-16.34c0-9.024 7.314-16.34 16.34-16.34s16.34 7.316 16.34 16.34v16.34h132.538v-132.538h-16.34c-9.026 0-16.34-7.316-16.34-16.34s7.314-16.34 16.34-16.34h16.34v-132.538h-16.34c-9.026 0-16.34-7.316-16.34-16.34s7.314-16.34 16.34-16.34h16.34v-132.54h-16.34c-9.026 0-16.34-7.316-16.34-16.34s7.314-16.34 16.34-16.34h65.362c9.026 0 16.34 7.316 16.34 16.34s-7.314 16.34-16.34 16.34h-16.34v132.538h16.34c9.026 0 16.34 7.316 16.34 16.34s-7.314 16.34-16.34 16.34h-16.34v132.538h16.34zM1007.66 497.021c-9.026 0-16.34-7.316-16.34-16.34v-16.34h-132.538v16.34c0 9.024-7.314 16.34-16.34 16.34s-16.34-7.316-16.34-16.34v-16.34h-132.54v16.34c0 9.024-7.314 16.34-16.34 16.34s-16.34-7.316-16.34-16.34v-16.34h-83.517c-9.026 0-16.34-7.316-16.34-16.34s7.314-16.34 16.34-16.34h83.517v-16.34c0-9.024 7.314-16.34 16.34-16.34s16.34 7.316 16.34 16.34v16.34h132.54v-16.34c0-9.024 7.314-16.34 16.34-16.34s16.34 7.316 16.34 16.34v16.34h132.538v-16.34c0-9.024 7.314-16.34 16.34-16.34s16.34 7.316 16.34 16.34v65.362c0 9.024-7.314 16.34-16.34 16.34z" />
<glyph unicode="&#xe910;" glyph-name="minus-symbol" d="M967.112 504.888h-910.224c-31.403 0-56.888-25.485-56.888-56.888 0-31.288 25.485-56.888 56.888-56.888h910.224c31.288 0 56.888 25.6 56.888 56.888 0 31.403-25.6 56.888-56.888 56.888z" />
<glyph unicode="&#xe911;" glyph-name="pdf" d="M842.013 370.519c-13.647 13.446-43.914 20.567-89.971 21.172-31.177 0.344-68.701-2.402-108.171-7.928-17.674 10.197-35.887 21.295-50.187 34.658-38.463 35.917-70.57 85.772-90.576 140.594 1.304 5.121 2.413 9.621 3.446 14.214 0 0 21.665 123.059 15.93 164.665-0.789 5.706-1.275 7.361-2.809 11.796l-1.882 4.835c-5.892 13.592-17.447 27.994-35.562 27.208l-10.915 0.344c-20.2 0-36.664-10.332-40.986-25.774-13.137-48.434 0.419-120.891 24.983-214.737l-6.288-15.285c-17.589-42.877-39.631-86.060-59.078-124.157l-2.529-4.956c-20.46-40.040-39.024-74.029-55.853-102.824l-17.376-9.187c-1.265-0.668-31.044-16.418-38.029-20.644-59.255-35.38-98.521-75.544-105.036-107.416-2.074-10.17-0.53-23.184 10.013-29.211l16.806-8.458c7.29-3.652 14.978-5.503 22.854-5.503 42.204 0 91.2 52.573 158.696 170.366 77.929 25.371 166.654 46.458 244.414 58.090 59.259-33.368 132.142-56.542 178.143-56.542 8.168 0 15.208 0.78 20.93 2.292 8.822 2.337 16.259 7.369 20.792 14.196 8.924 13.43 10.735 31.932 8.312 50.874-0.722 5.62-5.213 12.57-10.070 17.316zM211.647 145.952c7.695 21.043 38.16 62.644 83.203 99.556 2.832 2.296 9.807 8.834 16.195 14.903-47.103-75.126-78.647-105.068-99.398-114.459zM478.435 760.314c13.567 0 21.283-34.195 21.924-66.253 0.639-32.060-6.858-54.561-16.159-71.209-7.703 24.649-11.426 63.5-11.426 88.904 0 0-0.566 48.559 5.66 48.559zM398.851 322.506c9.45 16.917 19.283 34.758 29.33 53.677 24.492 46.316 39.959 82.558 51.479 112.347 22.911-41.683 51.445-77.121 84.987-105.514 4.184-3.54 8.617-7.1 13.273-10.65-68.21-13.496-127.164-29.91-179.069-49.861zM828.907 326.348c-4.155-2.598-16.055-4.099-23.71-4.099-24.705 0-55.271 11.295-98.122 29.666 16.464 1.219 31.561 1.837 45.099 1.837 24.78 0 32.12 0.108 56.35-6.073s24.536-18.733 20.383-21.331zM903.434 760.569l-142.863 142.862c-31.114 31.114-92.569 56.569-136.57 56.569h-480c-44.001 0-80.001-36-80.001-80.001v-864.001c0-43.999 36-79.999 80.001-79.999h736c43.999 0 79.999 36 79.999 79.999v608.001c0.002 44.001-25.453 105.458-56.565 136.57zM858.179 715.315c3.132-3.132 6.25-6.975 9.279-11.315h-163.457v163.455c4.341-3.030 8.185-6.15 11.315-9.279l142.863-142.862zM896.001 15.999c0-8.673-7.327-15.999-15.999-15.999h-736.002c-8.673 0-15.999 7.327-15.999 15.999v864.001c0 8.673 7.329 15.999 15.999 15.999h480c4.833 0 10.255-0.611 16.001-1.703v-254.296h254.296c1.092-5.747 1.703-11.167 1.703-15.999v-608.001z" />
<glyph unicode="&#xe912;" glyph-name="people" d="M839.198 260.371c-107.845 41.253-172.551 83.344-172.551 83.344l-83.135-263.015-11.308-35.599-37.274 105.541c85.647 119.362-6.492 125.016-22.407 125.225v0h-0.838c-15.915-0.209-108.054-5.863-22.407-125.225l-37.274-105.541-11.308 35.599-83.135 263.015c0 0-64.707-42.091-172.551-83.344-119.153-43.138-111.823-140.931-114.127-324.371h882.231c-2.513 183.44 4.816 281.234-113.917 324.371zM515.246 743.473l48.373 48.373c-59.472 20.103-127.738 6.492-175.064-40.834-66.382-66.382-66.382-174.227 0-240.609s174.227-66.382 240.609 0c47.326 47.326 60.937 115.593 40.834 175.064l-48.373-48.373c1.675-30.992-9.214-62.613-32.877-86.276-44.185-44.185-115.593-44.185-159.778 0s-44.185 115.593 0 159.778c23.663 23.663 55.283 34.552 86.276 32.877zM711.67 427.897c93.605 93.605 109.101 235.792 46.070 345.521l-46.279-46.279c39.578-83.344 24.919-186.163-43.975-255.058-87.742-87.742-229.719-87.742-317.461 0s-87.742 229.719 0 317.461c69.104 68.895 171.714 83.763 255.058 43.975l46.279 46.279c-109.52 62.822-251.917 47.535-345.521-46.070-112.033-112.033-112.033-293.589 0-405.831 112.242-112.033 293.798-112.033 405.831 0zM524.46 687.143c-5.026 1.466-10.261 2.094-15.706 2.094-32.458 0-58.634-26.176-58.634-58.634s26.176-58.634 58.634-58.634 58.634 26.176 58.634 58.634c0 5.445-0.838 10.68-2.094 15.706l163.547 163.547 26.385-3.56 82.716 82.716-62.613 8.376-8.376 62.613-82.506-82.716 3.56-26.385-163.547-163.756z" />
<glyph unicode="&#xe913;" glyph-name="phone-receiver" d="M1023.511 152.060c2.17-16.624-2.896-31.077-15.177-43.361l-144.177-143.088c-6.504-7.227-14.994-13.375-25.473-18.429-10.479-5.061-20.776-8.313-30.89-9.756-0.723 0-2.896-0.186-6.511-0.547-3.608-0.36-8.306-0.544-14.087-0.544-13.735 0-35.959 2.349-66.674 7.048s-68.293 16.264-112.734 34.689c-44.453 18.429-94.859 46.075-151.227 82.929-56.368 36.852-116.353 87.444-179.95 151.765-50.588 49.866-92.504 97.563-125.748 143.091-33.244 45.531-59.983 87.628-80.219 126.292-20.237 38.664-35.414 73.714-45.531 105.152s-16.983 58.538-20.597 81.303-5.059 40.651-4.336 53.66c0.723 13.008 1.084 20.235 1.084 21.681 1.445 10.118 4.697 20.416 9.756 30.895s11.202 18.971 18.429 25.475l144.177 144.177c10.118 10.118 21.681 15.177 34.689 15.177 9.395 0 17.706-2.71 24.933-8.13s13.37-12.105 18.429-20.055l115.992-220.059c6.504-11.563 8.311-24.21 5.42-37.941s-9.034-25.294-18.429-34.689l-53.118-53.118c-1.445-1.445-2.71-3.794-3.794-7.046s-1.626-5.962-1.626-8.13c2.891-15.177 9.395-32.521 19.513-52.034 8.672-17.345 22.042-38.483 40.109-63.416s43.723-53.658 76.967-86.179c32.521-33.247 61.429-59.080 86.723-77.512 25.289-18.422 46.435-31.977 63.418-40.65s29.992-13.912 39.024-15.713l13.547-2.712c1.445 0 3.799 0.544 7.048 1.626 3.252 1.086 5.601 2.349 7.048 3.796l61.788 62.874c13.016 11.561 28.185 17.343 45.531 17.343 12.289 0 22.040-2.166 29.267-6.504h1.082l209.217-123.58c15.182-9.402 24.214-21.323 27.106-35.777z" />
<glyph unicode="&#xe914;" glyph-name="play" d="M955.316 703.958c-141.36 244.843-454.453 328.737-699.276 187.351-244.843-141.34-328.74-454.421-187.355-699.254 141.34-244.843 454.424-328.75 699.25-187.378 244.846 141.389 328.783 454.453 187.381 699.28zM716.756 93.372c-195.845-113.111-446.335-45.992-559.413 149.892-113.105 195.845-45.962 446.331 149.889 559.387 195.858 113.105 446.335 45.992 559.42-149.886 113.088-195.874 45.966-446.309-149.895-559.394zM696.283 468.808l-268.054 156.335c-24.427 14.261-44.13 2.859-43.993-25.396l1.373-310.309c0.124-28.248 20.068-39.748 44.567-25.598l266.003 153.577c24.473 14.124 24.525 37.13 0.104 51.391z" />
<glyph unicode="&#xe915;" glyph-name="right-arrow-circular-button" d="M464.448 659.361l-0.095-0.129c-8.575 7.872-19.839 12.768-32.351 12.768-26.495 0-48.001-21.504-48.001-48.001 0-14.016 6.080-26.495 15.648-35.264l-0.095-0.129 153.408-140.606-153.409-140.641 0.095-0.127c-9.567-8.736-15.648-21.216-15.648-35.233 0-26.497 21.504-48.001 48.001-48.001 12.512 0 23.776 4.896 32.351 12.735l0.095-0.127 192 176.001c9.889 9.121 15.552 21.921 15.552 35.392s-5.664 26.273-15.552 35.392l-191.998 175.971zM512 960c-282.751 0-512-229.249-512-512s229.249-512 512-512 512 229.249 512 512-229.249 512-512 512zM512 32c-229.376 0-416 186.624-416 416s186.624 416 416 416 416-186.624 416-416-186.624-416-416-416z" />
<glyph unicode="&#xe916;" glyph-name="right-arrow-circular-button-1" d="M512-64c-282.32 0-512 229.68-512 512s229.68 512 512 512 512-229.68 512-512-229.68-512-512-512zM512 925.277c-263.153 0-477.277-214.101-477.277-477.277 0-263.153 214.124-477.277 477.277-477.277 263.199 0 477.277 214.124 477.277 477.277 0 263.176-214.078 477.277-477.277 477.277zM447.716 268.228c-4.445 0-8.889 1.69-12.269 5.093-6.783 6.759-6.783 17.778 0 24.561l157.318 157.503-157.318 157.48c-6.759 6.783-6.759 17.801 0 24.561 6.783 6.783 17.778 6.783 24.561 0l169.563-169.748c6.783-6.783 6.783-17.778 0-24.561l-169.563-169.748c-3.403-3.449-7.847-5.139-12.292-5.139z" />
<glyph unicode="&#xe917;" glyph-name="science" d="M320.048 413.955h20.903v-73.353c0-9.024 7.316-16.34 16.34-16.34h65.797c9.024 0 16.34 7.316 16.34 16.34v73.353h32.681v-73.353c0-9.024 7.316-16.34 16.34-16.34h65.8c9.024 0 16.34 7.316 16.34 16.34v73.353h20.903c9.024 0 16.34 7.316 16.34 16.34s-7.316 16.34-16.34 16.34h-9.789v228.505h44.679l142.643-81.295c26.474-15.231 48.84-53.906 48.84-84.449v-110.514c0-9.024 7.316-16.34 16.34-16.34s16.34 7.316 16.34 16.34v110.514c0 42.195-28.65 91.733-65.281 112.81l-146.463 83.471c-2.464 1.405-5.253 2.144-8.090 2.144h-49.013v83.552c0 9.024-7.316 16.34-16.34 16.34h-27.526v135.946c0 9.024-7.316 16.34-16.34 16.34h-131.451c-9.024 0-16.34-7.316-16.34-16.34v-135.946h-27.526c-9.024 0-16.34-7.316-16.34-16.34v-344.737h-9.789c-9.024 0-16.34-7.316-16.34-16.34s7.314-16.34 16.34-16.34zM406.746 356.942h-33.117v57.013h33.117v-57.013zM537.907 356.942h-33.119v57.013h33.119v-57.013zM406.382 927.319h98.77v-119.605h-98.77v119.605zM362.518 775.033h186.503v-328.397h-186.503v328.397zM834.207 349.862c-45.531 0-82.576-37.043-82.576-82.576 0-39.94 28.504-73.34 66.235-80.946v-217.659h-669.522l40.071 93.417c11.665 27.195 46.522 50.169 76.112 50.169h503.444c9.024 0 16.34 7.316 16.34 16.34s-7.316 16.34-16.34 16.34h-49.021v354.138c0 5.883-3.164 11.312-8.281 14.214l-71.891 40.762c-7.852 4.449-17.822 1.695-22.275-6.155-4.451-7.85-1.695-17.822 6.155-22.275l63.61-36.067v-205.942h-366.219c-9.024 0-16.34-7.316-16.34-16.34v-65.362c0-9.024 7.316-16.34 16.34-16.34h317.203c9.024 0 16.34 7.316 16.34 16.34s-7.316 16.34-16.34 16.34h-300.862v32.681h349.883v-105.997h-421.742c-42.69 0-89.315-30.733-106.145-69.968l-49.843-116.198c-2.166-5.048-1.649-10.848 1.375-15.434s8.148-7.347 13.643-7.347h710.652c9.024 0 16.34 7.316 16.34 16.34v233.999c37.731 7.606 66.235 41.006 66.235 80.946-0.002 45.531-37.047 82.576-82.58 82.576zM834.207 217.389c-27.511 0-49.895 22.382-49.895 49.895 0 27.511 22.382 49.895 49.895 49.895s49.895-22.382 49.895-49.895c0.002-27.511-22.382-49.895-49.895-49.895z" />
<glyph unicode="&#xe918;" glyph-name="science-1" d="M822.481 546.459v250.424c24.474 2.719 43.572 23.52 43.572 48.709 0 27.030-21.988 49.018-49.018 49.018h-217.858c-27.030 0-49.018-21.988-49.018-49.018 0-25.187 19.097-45.99 43.572-48.709v-250.428c-49.399-19.198-93.357-50.685-127.678-91.572-5.804-6.913-4.902-17.217 2.009-23.019 3.063-2.571 6.791-3.826 10.496-3.826 4.662 0 9.292 1.985 12.523 5.834 33.051 39.374 76.046 69.022 124.336 85.74 6.582 2.279 10.993 8.477 10.993 15.44v261.522h92.59c9.024 0 16.339 7.316 16.339 16.339s-7.316 16.339-16.339 16.339h-119.822c-9.011 0-16.339 7.329-16.339 16.339s7.329 16.339 16.339 16.339h217.858c9.011 0 16.339-7.329 16.339-16.339s-7.329-16.339-16.339-16.339h-32.679c-9.024 0-16.339-7.316-16.339-16.339s7.316-16.339 16.339-16.339h5.446v-261.519c0-6.963 4.414-13.163 10.993-15.44 113.96-39.454 190.526-147.028 190.526-267.685 0-156.165-127.051-283.216-283.216-283.216-36.816 0-72.654 6.976-106.515 20.731-8.357 3.399-17.891-0.627-21.287-8.987s0.63-17.891 8.989-21.287c37.788-15.35 77.76-23.134 118.813-23.134 174.184 0 315.895 141.71 315.895 315.895 0 130.652-80.503 247.555-201.519 294.527zM846.212 194.467c0-9.024-7.315-16.339-16.339-16.339s-16.339 7.315-16.339 16.339c0 9.024 7.315 16.339 16.339 16.339s16.339-7.315 16.339-16.339zM780.855 129.11c0-9.024-7.315-16.339-16.339-16.339s-16.339 7.315-16.339 16.339c0 9.024 7.315 16.339 16.339 16.339s16.339-7.315 16.339-16.339zM615.82 54.537c-8.168 3.823-17.897 0.305-21.727-7.867-3.828-8.172-0.305-17.899 7.867-21.727 33.367-15.629 69.079-23.555 106.145-23.555 138.146 0 250.537 112.391 250.537 250.537 0 44.036-11.597 87.357-33.537 125.282-3.329 5.754-9.806 8.923-16.394 8l-5.948-0.828c-0.745-0.102-1.486-0.259-2.209-0.464-24.701-7.011-38.023-17.71-48.726-26.306-11.858-9.525-19.694-15.817-42.299-15.817-19.304 0-28.014 7.483-40.071 17.84-13.344 11.464-29.951 25.731-61.364 25.731-31.411 0-48.016-14.268-61.36-25.733-12.054-10.357-20.762-17.838-40.062-17.838-22.603 0-30.435 6.292-42.293 15.817-10.703 8.597-24.023 19.296-48.72 26.306-0.725 0.207-1.464 0.362-2.211 0.464l-5.948 0.828c-6.575 0.922-13.037-2.231-16.372-7.963-0.142-0.242-0.279-0.488-0.429-0.767-4.497-7.823-1.8-17.812 6.024-22.309 3.399-1.952 7.202-2.549 10.791-1.956l0.272-0.039c17.625-5.181 26.62-12.405 36.13-20.045 14.087-11.316 28.655-23.017 62.756-23.017 31.411 0 48.016 14.268 61.36 25.733 12.054 10.357 20.762 17.838 40.062 17.838 19.304 0 28.014-7.483 40.071-17.84 13.344-11.464 29.951-25.731 61.364-25.731 34.104 0 48.672 11.701 62.763 23.015 8.394 6.743 16.383 13.159 30.261 18.137 15.348-30.328 23.413-64.081 23.413-98.339 0-120.127-97.731-217.858-217.858-217.858-32.241 0.004-63.29 6.891-92.287 20.472zM394.389 537.799v324.441c24.474 2.719 43.572 23.52 43.572 48.709 0 27.030-21.988 49.018-49.018 49.018h-217.858c-27.030 0-49.018-21.988-49.018-49.018 0-25.187 19.097-45.99 43.572-48.709v-261.831c0-9.024 7.316-16.339 16.339-16.339s16.339 7.316 16.339 16.339v261.522h92.59c9.024 0 16.339 7.316 16.339 16.339s-7.316 16.339-16.339 16.339h-119.822c-9.011 0-16.339 7.329-16.339 16.339s7.329 16.339 16.339 16.339h217.858c9.011 0 16.339-7.329 16.339-16.339s-7.329-16.339-16.339-16.339h-32.679c-9.024 0-16.339-7.316-16.339-16.339s7.316-16.339 16.339-16.339h5.446v-326.879c0-1.817 0.303-3.623 0.898-5.34l158.795-459.145c9.59-27.729 7.427-53.452-6.089-72.429-13.518-18.975-37.119-29.428-66.458-29.428h-337.681c-29.339 0-52.942 10.451-66.46 29.428-13.516 18.978-15.679 44.7-6.089 72.427l158.795 459.143c2.95 8.529-1.573 17.834-10.1 20.784-8.527 2.948-17.834-1.573-20.784-10.1l-158.797-459.143c-13.141-37.992-9.462-74.242 10.357-102.067s52.874-43.149 93.076-43.149h337.681c40.201 0 73.257 15.324 93.076 43.149s23.498 64.074 10.357 102.067l-157.897 456.551zM140.85 200.127c-4.161 3.226-9.627 4.255-14.671 2.752-5.048-1.501-9.065-5.344-10.786-10.322l-45.885-132.674c-6.039-17.464-5.392-32.659 1.823-42.787s21.363-15.708 39.842-15.708h337.681c18.477 0 32.626 5.579 39.84 15.708 7.218 10.128 7.865 25.326 1.823 42.787l-45.888 132.678c-1.721 4.978-5.736 8.819-10.784 10.32-5.048 1.503-10.512 0.477-14.671-2.752-8.913-6.913-17.35-12.202-37.74-12.202-19.302 0-28.014 7.483-40.071 17.84-13.344 11.464-29.951 25.731-61.364 25.731-31.411 0-48.016-14.268-61.36-25.733-12.054-10.357-20.762-17.838-40.064-17.838-20.383 0.004-28.818 5.29-37.727 12.2zM239.938 180.984c12.054 10.357 20.762 17.838 40.062 17.838 19.304 0 28.014-7.483 40.071-17.84 13.344-11.464 29.951-25.731 61.364-25.731 17.080 0 29.376 3.059 38.975 7.361l39.223-113.411c2.318-6.704 2.447-11.093 2.218-12.987-1.715-0.834-5.904-2.148-12.997-2.148h-337.681c-7.093 0-11.283 1.314-12.997 2.148-0.229 1.893-0.1 6.283 2.218 12.987l39.221 113.406c9.594-4.303 21.888-7.359 38.964-7.359 31.413 0.004 48.018 14.272 61.36 25.736z" />
<glyph unicode="&#xe919;" glyph-name="signs" d="M801.081 843.144c-81.843 79.136-189.717 120.369-303.839 116.621-207.835-7.289-379.434-168.684-399.426-375.269-3.749-39.776-2.083-79.552 5.415-118.703 0.208-1.666 1.041-6.456 2.916-13.953 6.456-28.114 15.619-55.603 27.697-81.843 42.275-99.544 134.322-252.817 333.202-417.753 13.12-10.829 28.947-16.244 44.982-16.244s31.862 5.415 44.982 16.244c198.88 165.143 290.927 318.208 333.202 417.753 12.079 26.24 21.45 53.729 27.697 81.843 1.874 7.497 2.707 12.287 2.916 13.953 4.79 25.615 7.289 52.063 7.289 78.094 0 113.914-45.191 220.122-127.033 299.257zM846.897 479.12c0-0.625-0.208-1.041-0.208-1.666-0.208-1.041-0.833-3.957-1.874-8.538 0-0.208 0-0.208 0-0.417-5.206-23.116-12.912-46.024-22.908-67.682-0.208-0.417-0.417-0.833-0.417-1.041-38.735-91.422-123.701-232.617-309.254-387.556-185.552 154.731-270.519 296.134-309.254 387.556-0.208 0.417-0.417 0.833-0.417 1.041-9.996 21.658-17.701 44.358-22.908 67.682 0 0.208 0 0.208 0 0.417-1.041 4.582-1.666 7.497-1.874 8.538 0 0.625-0.208 1.041-0.208 1.666-6.664 32.279-8.33 65.391-5.206 98.295 16.244 169.517 157.022 301.757 327.371 307.588 93.505 3.332 182.012-30.613 249.277-95.587s104.126-152.024 104.126-245.529c0-21.658-2.083-43.525-6.248-64.766zM512.028 761.301c-122.035 0-221.58-99.336-221.58-221.58s99.544-221.58 221.58-221.58c20.617 0 37.485 16.868 37.485 37.485s-16.868 37.485-37.485 37.485c-80.802 0-146.609 65.807-146.609 146.609s65.807 146.609 146.609 146.609 146.609-65.807 146.609-146.609c0-34.986-12.495-68.723-35.195-95.171-13.536-15.827-11.662-39.36 4.165-52.896s39.36-11.662 52.896 4.165c34.362 39.984 53.104 91.214 53.104 143.902 0 122.035-99.336 221.58-221.58 221.58z" />
<glyph unicode="&#xe91a;" glyph-name="technology" d="M809.283 325.668c-20.964 21.828-46.25 33.499-73.049 33.499-26.583 0-52.085-11.454-73.914-33.283l-68.295-68.078c-5.619 3.026-11.238 5.835-16.641 8.645-7.78 3.89-15.129 7.564-21.396 11.454-63.972 40.631-122.109 93.581-177.869 162.092-27.015 34.147-45.17 62.892-58.353 92.068 17.722 16.209 34.147 33.067 50.14 49.276 6.051 6.051 12.103 12.319 18.154 18.37 45.386 45.386 45.386 104.171 0 149.557l-59.001 59.001c-6.7 6.7-13.616 13.616-20.099 20.532-12.967 13.4-26.583 27.231-40.631 40.199-20.964 20.748-46.034 31.77-72.401 31.77s-51.869-11.022-73.482-31.77c-0.216-0.216-0.216-0.216-0.432-0.432l-73.482-74.13c-27.664-27.664-43.441-61.379-46.899-100.497-5.187-63.108 13.4-121.893 27.664-160.363 35.012-94.445 87.313-181.975 165.333-275.772 94.662-113.032 208.558-202.29 338.664-265.182 49.708-23.557 116.058-51.437 190.188-56.192 4.539-0.216 9.293-0.432 13.616-0.432 49.924 0 91.852 17.938 124.703 53.598 0.216 0.432 0.648 0.648 0.864 1.081 11.238 13.616 24.206 25.935 37.821 39.118 9.293 8.861 18.803 18.154 28.096 27.88 21.396 22.261 32.634 48.195 32.634 74.778 0 26.799-11.454 52.518-33.283 74.13l-118.651 119.083zM886.654 98.092c-0.216 0-0.216-0.216 0 0-8.429-9.077-17.074-17.29-26.367-26.367-14.048-13.4-28.312-27.448-41.712-43.224-21.828-23.341-47.547-34.363-81.262-34.363-3.242 0-6.7 0-9.942 0.216-64.188 4.106-123.838 29.176-168.575 50.573-122.325 59.217-229.738 143.289-318.996 249.837-73.698 88.826-122.974 170.953-155.608 259.131-20.099 53.814-27.448 95.742-24.206 135.293 2.161 25.286 11.887 46.25 29.825 64.188l73.698 73.698c10.59 9.942 21.828 15.345 32.851 15.345 13.616 0 24.638-8.213 31.554-15.129 0.216-0.216 0.432-0.432 0.648-0.648 13.183-12.319 25.719-25.070 38.902-38.686 6.7-6.916 13.616-13.832 20.532-20.964l59.001-59.001c22.909-22.909 22.909-44.089 0-66.998-6.268-6.268-12.319-12.535-18.587-18.587-18.154-18.587-35.444-35.876-54.247-52.734-0.432-0.432-0.864-0.648-1.081-1.081-18.587-18.587-15.129-36.741-11.238-49.060 0.216-0.648 0.432-1.297 0.648-1.945 15.345-37.173 36.957-72.185 69.807-113.896l0.216-0.216c59.65-73.482 122.541-130.754 191.917-174.627 8.861-5.619 17.938-10.158 26.583-14.48 7.78-3.89 15.129-7.564 21.396-11.454 0.864-0.432 1.729-1.081 2.593-1.513 7.348-3.674 14.264-5.403 21.396-5.403 17.938 0 29.176 11.238 32.851 14.912l73.914 73.914c7.348 7.348 19.019 16.209 32.634 16.209 13.4 0 24.422-8.429 31.122-15.777 0.216-0.216 0.216-0.216 0.432-0.432l119.083-119.083c22.261-22.044 22.261-44.737 0.216-67.646zM553.394 716.417c56.624-9.509 108.061-36.309 149.124-77.372s67.646-92.5 77.372-149.124c2.377-14.264 14.696-24.206 28.744-24.206 1.729 0 3.242 0.216 4.971 0.432 15.993 2.593 26.583 17.722 23.99 33.715-11.671 68.511-44.089 130.97-93.581 180.462s-111.951 81.91-180.462 93.581c-15.993 2.593-30.905-7.997-33.715-23.773s7.564-31.122 23.557-33.715zM1022.811 508.292c-19.235 112.816-72.401 215.474-154.095 297.168s-184.352 134.86-297.168 154.095c-15.777 2.81-30.689-7.997-33.499-23.773-2.593-15.993 7.997-30.905 23.99-33.715 100.713-17.074 192.565-64.837 265.614-137.67 73.049-73.049 120.596-164.901 137.67-265.614 2.377-14.264 14.696-24.206 28.744-24.206 1.729 0 3.242 0.216 4.971 0.432 15.777 2.377 26.583 17.506 23.773 33.283z" />
<glyph unicode="&#xe91b;" glyph-name="technology-1" d="M778.514 282.604c-33.454 33.028-75.219 33.028-108.46 0-25.357-25.144-50.714-50.288-75.645-75.858-6.819-7.032-12.572-8.523-20.882-3.836-16.408 8.95-33.88 16.194-49.649 25.996-73.514 46.239-135.096 105.69-189.645 172.599-27.062 33.241-51.14 68.826-67.974 108.886-3.409 8.097-2.77 13.424 3.836 20.030 25.357 24.505 50.075 49.649 75.006 74.793 34.733 34.946 34.733 75.858-0.213 111.017-19.817 20.030-39.634 39.634-59.451 59.664-20.456 20.456-40.699 41.125-61.368 61.368-33.454 32.602-75.219 32.602-108.46-0.213-25.57-25.144-50.075-50.927-76.071-75.645-24.079-22.8-36.224-50.714-38.781-83.316-4.049-53.058 8.95-103.133 27.275-151.929 37.503-101.002 94.61-190.711 163.862-272.962 93.544-111.23 205.201-199.234 335.822-262.733 58.811-28.553 119.754-50.501 186.023-54.124 45.6-2.557 85.234 8.95 116.984 44.535 21.735 24.292 46.239 46.452 69.253 69.679 34.094 34.52 34.307 76.284 0.426 110.378-40.486 40.699-81.185 81.185-121.884 121.671zM737.814 452.432l78.628 13.424c-12.359 72.236-46.452 137.653-98.232 189.645-54.763 54.763-124.015 89.283-200.3 99.937l-11.080-79.054c59.024-8.31 112.722-34.946 155.126-77.35 40.060-40.060 66.269-90.774 75.858-146.602zM860.764 794.22c-90.774 90.774-205.627 148.094-332.412 165.78l-11.080-79.054c109.526-15.342 208.823-64.991 287.238-143.193 74.367-74.367 123.163-168.337 140.849-271.683l78.628 13.424c-20.669 119.754-77.137 228.427-163.223 314.726z" />
<glyph unicode="&#xe91c;" glyph-name="telephone" d="M883.657 442.64h-52.225c0 170.437-138.619 309.024-308.962 309.024l-0.031 52.162c199.214 0.094 361.218-161.973 361.218-361.187zM522.439 713.733l-0.031-52.162c120.782 0 218.9-98.212 218.837-218.9l52.225 0.031c0 149.434-121.503 271.031-271.031 271.031zM512 960c-282.348 0-512-229.652-512-512.031 0-282.316 229.652-511.969 512-511.969 17.461 0 31.567 14.106 31.567 31.536 0 17.523-14.106 31.661-31.567 31.661-247.52 0-448.835 201.377-448.835 448.772 0 247.52 201.314 448.866 448.835 448.866s448.803-201.377 448.803-448.866c0-103.416-55.046-205.891-133.823-249.339-28.62-15.736-59.654-23.542-92.757-23.856 19.874 11.818 37.084 27.805 49.874 47.93 2.508 3.793 5.831 7.147 7.461 11.254 10.282 24.733 11.191 52.789 17.398 78.933 7.617 33.354-146.017 98.525-159.371 56.865-4.828-15.423-12.226-64.2-21.912-77.052-8.621-11.473-29.874-6.019-43.166 5.266-35.015 29.843-74.106 73.698-108.4 108.369l0.063 0.031c-0.878 0.909-1.944 1.912-2.884 2.884-0.972 0.909-1.944 1.944-2.915 2.884v-0.063c-34.67 34.357-78.557 73.353-108.369 108.431-11.285 13.291-16.74 34.545-5.266 43.166 12.853 9.749 61.629 17.022 77.052 21.912 41.567 13.291-23.511 167.020-56.927 159.371-26.081-6.113-54.137-7.116-78.871-17.335-4.201-1.787-7.461-5.016-11.254-7.523-87.742-55.611-99.058-190.656-13.417-291.282 32.633-38.495 66.676-75.736 101.723-112.099l-0.188-0.125c0.972-0.972 1.975-1.881 2.978-2.821 0.94-0.972 1.85-1.944 2.759-2.978l0.188 0.188c36.363-35.047 79.466-86.676 149.497-133.384 147.428-98.463 260.561-70.971 327.206-34.42 115.046 63.353 166.518 198.681 166.518 304.667 0 282.504-229.684 512.157-512 512.157z" />
<glyph unicode="&#xe91d;" glyph-name="tool" d="M1000.29 74.151l-90.731 90.731c38.908 85.48 23.449 189.778-46.703 259.963-90.372 90.372-237.329 90.372-327.799-0.033-90.372-90.34-90.372-237.329 0.098-327.668 70.087-70.184 174.45-85.643 259.93-46.735l90.731-90.731c31.7-31.603 82.871-31.603 114.474 0 15.198 15.165 23.743 35.81 23.743 57.204-0.033 21.46-8.545 42.104-23.743 57.269zM805.033 154.902c-58.411-58.411-153.642-58.411-212.053 0-58.476 58.476-58.476 153.642 0 212.053 58.411 58.509 153.642 58.509 212.053 0 58.411-58.346 58.541-153.577 0-212.053zM511.772 73.76c-19.568 19.568-35.549 41.647-47.942 65.553v-86.622c-37.375 18.296-71.978 58.672-99.732 116.267 25.993 7.827 53.291 12.915 81.045 16.405-7.175 24.199-10.958 49.573-10.958 75.533 0 7.566 0.489 15.133 1.076 22.666-36.397-4.338-71.489-11.61-104.853-22.21-12.067 44.159-19.731 91.514-22.862 140.793h156.251v-19.503c12.361 23.808 28.309 45.92 47.844 65.423 22.112 22.079 47.551 39.528 75.076 52.377h-33.331v115.876c46.8 3.261 91.448 11.676 133.422 24.949 10.045-36.69 16.176-75.794 20.057-116.104 31.929-0.913 62.944-7.305 91.709-18.948-3.424 60.107-12.556 117.344-27.134 170.341 20.612 11.089 40.115 23.645 58.215 37.44 52.573-61.411 85.056-134.727 94.644-213.553h-113.136c27.526-12.882 52.932-30.298 75.011-52.345 13.991-13.991 25.536-29.613 35.842-45.985h2.283c-0.163-0.913-0.359-1.924-0.489-2.87 33.331-54.693 45.952-119.822 35.32-182.929 36.821 70.315 57.954 150.185 57.954 234.981 0.065 280.542-228.132 508.706-508.478 508.706-280.476 0-508.608-228.164-508.608-508.641s228.132-508.641 508.608-508.641c84.273 0 163.655 21.003 233.741 57.432-14.448-2.413-29.157-3.685-43.767-3.685-70.674 0.033-137.009 27.493-186.81 77.294zM757.384 781.245c-6.36-4.077-12.752-7.958-19.209-11.61-5.61 12.295-11.48 24.101-17.546 35.353 12.654-7.305 24.819-15.231 36.755-23.743zM553.419 850.19c37.277-18.231 71.88-58.574 99.634-116.235-31.863-9.556-65.162-15.948-99.634-18.883v135.118zM463.862 850.255v-135.248c-34.538 2.935-67.869 9.23-99.732 18.851 27.754 57.759 62.357 98.102 99.732 116.398zM330.375 641.398c42.104-13.241 86.882-21.623 133.487-24.982v-115.876h-156.251c3.098 49.279 10.795 96.536 22.764 140.858zM187.397 188.82c-52.443 61.444-84.926 134.661-94.514 213.456h125.171c3.359-62.357 12.524-121.518 27.624-175.983-20.612-11.089-40.147-23.677-58.28-37.473zM218.054 500.573h-125.171c9.621 78.729 41.974 151.914 94.416 213.227 17.774-13.6 37.31-26.123 58.346-37.343-15.1-54.497-24.362-113.528-27.591-175.885zM259.897 121.571c6.392 4.109 12.752 8.023 19.242 11.61 5.577-12.295 11.447-24.101 17.579-35.418-12.752 7.305-25.047 15.296-36.821 23.808zM279.237 769.765c-6.914 3.751-13.274 7.566-19.34 11.48 11.773 8.512 24.069 16.437 36.821 23.743-6.164-11.186-12.002-22.993-17.481-35.223z" />
<glyph unicode="&#xe91e;" glyph-name="word-document" d="M871.402 960h-718.687c-15.178 0-27.484-12.306-27.484-27.425v-968.973c0-15.178 12.306-27.601 27.484-27.601h536.027c7.794 0 15.236 3.34 20.452 9.2l182.66 204.46c4.454 5.157 6.915 11.544 6.915 18.401v764.513c0.059 15.119-12.189 27.425-27.367 27.425zM812.156 244.36l-163.849 0.176c-8.146 0-15.881-3.223-21.624-9.025-5.743-5.626-8.907-13.42-8.849-21.624l0.586-205.046h-410.561v882.243h604.356l-0.059-646.725zM271.441 545.22h470.393v-70.908h-470.393v70.908zM271.441 395.845h470.393v-70.966h-470.393v70.966zM385.304 620.815l19.397 68.095c5.216 18.225 9.142 35.981 12.658 60.184h0.82c3.926-23.734 7.501-41.197 12.248-60.184l18.225-68.095h56.609l59.48 193.619h-59.012l-16.643-76.826c-4.336-22.151-8.321-43.892-11.017-66.102h-0.82c-3.985 22.21-9.142 43.951-14.299 65.751l-19.397 77.178h-47.526l-20.628-79.581c-4.747-19.045-10.255-41.138-14.24-63.348h-0.762c-3.223 22.21-7.208 43.541-11.076 63.758l-15.471 79.112h-61.356l56.257-193.619h56.55v0.059z" />
<glyph unicode="&#xe91f;" glyph-name="world" d="M937.265 732.879l-15.32-4.857-81.585-7.269-23.045-36.8-16.721 5.313-64.929 58.54-9.42 30.444-12.614 32.464-40.809 36.604-48.143 9.42-1.108-22.034 47.165-46.024 23.077-27.184-25.946-13.559-21.121 6.226-31.65 13.201 1.076 25.522-41.526 17.080-13.788-60.007-41.852-9.485 4.14-33.475 54.531-10.496 9.42 53.488 45.013-6.649 20.926-12.256h33.573l22.979-46.024 60.92-61.8-4.465-24.022-49.12 6.258-84.877-42.862-61.115-73.306-7.953-32.464h-21.936l-40.874 18.84-39.701-18.84 9.876-41.884 17.275 19.915 30.378 0.945-2.119-37.614 25.163-7.366 25.131-28.227 41.037 11.539 46.871-7.399 54.433-14.635 27.184-3.194 46.089-52.315 88.951-52.315-57.53-109.91-60.724-28.227-23.045-62.81-87.876-58.671-9.355-33.833c224.644 54.107 391.758 255.902 391.758 497.169-0.065 105.379-32.008 203.457-86.702 284.846zM570.899 180.429l-37.289 69.134 34.225 71.318-34.225 10.235-38.429 38.592-85.138 19.101-28.26 59.127v-35.105h-12.451l-73.371 99.48v81.715l-53.782 87.452-85.399-15.222h-57.53l-28.944 18.97 36.93 29.27-36.832-8.507c-44.394-75.816-70.275-163.789-70.275-258.021 0-282.695 229.174-511.967 511.902-511.967 21.773 0 43.123 1.923 64.244 4.465l-5.346 62.028c0 0 23.501 92.113 23.501 95.242-0.033 3.162-23.533 82.693-23.533 82.693zM190.354 794.907l90.94 12.679 41.917 22.979 47.165-13.592 75.359 4.172 25.815 40.581 37.647-6.193 91.429 8.572 25.196 27.771 35.528 23.729 50.261-7.562 18.318 2.771c-66.2 31.161-139.865 49.186-217.929 49.186-158.9 0-300.981-72.426-394.789-186.149h0.261l72.882 21.056zM533.643 909.087l52.282 28.781 33.573-19.394-48.599-36.995-46.415-4.661-20.893 13.559 30.052 18.709zM378.785 904.882l23.077-9.615 30.215 9.615 16.46-28.52-69.753-18.318-33.54 19.622c-0.033 0 32.79 21.121 33.54 27.217z" />
<glyph unicode="&#xe920;" glyph-name="writing" d="M697.158-64c-6.361 0-12.319 3.941-14.615 10.271-0.714 2.017-67.429 197.073 162.413 312.63-71.525 71.463-348.47 368.733-348.47 685.584 0 8.564 6.951 15.515 15.515 15.515s15.515-6.951 15.515-15.515c0-342.481 351.294-675.406 354.863-678.695 3.786-3.537 5.554-8.751 4.686-13.871s-4.22-9.495-8.968-11.605c-228.29-102.338-168.991-276.201-166.353-283.555 2.886-8.068-1.303-16.943-9.371-19.859-1.707-0.59-3.475-0.9-5.213-0.9zM326.873-64c-1.738 0-3.475 0.31-5.213 0.9-8.037 2.886-12.257 11.729-9.433 19.828 2.607 7.354 61.006 181.651-166.322 283.586-4.748 2.11-8.099 6.485-8.968 11.605-0.838 5.12 0.9 10.333 4.686 13.871 3.568 3.289 354.863 336.213 354.863 678.695 0 8.564 6.951 15.515 15.515 15.515s15.515-6.951 15.515-15.515c0-316.85-276.945-614.121-348.47-685.584 229.841-115.588 163.126-310.613 162.413-312.63-2.265-6.33-8.223-10.271-14.584-10.271zM512 356.771c-8.564 0-15.515 6.951-15.515 15.515v572.199c0 8.564 6.951 15.515 15.515 15.515s15.515-6.951 15.515-15.515v-572.199c0-8.595-6.951-15.515-15.515-15.515zM512 247.358c-38.726 0-70.222 31.496-70.222 70.222s31.496 70.222 70.222 70.222 70.222-31.496 70.222-70.222-31.496-70.222-70.222-70.222zM512 356.771c-21.597 0-39.191-17.563-39.191-39.191s17.563-39.191 39.191-39.191 39.191 17.563 39.191 39.191-17.594 39.191-39.191 39.191zM837.042-64h-650.085c-8.564 0-15.515 6.951-15.515 15.515s6.951 15.515 15.515 15.515h650.054c8.564 0 15.515-6.951 15.515-15.515s-6.92-15.515-15.484-15.515z" />
<glyph unicode="&#xe921;" glyph-name="home" d="M1024 369.556l-512 397.426-512-397.428v162.038l512 397.426 512-397.428zM896 384v-384h-256v256h-256v-256h-256v384l384 288z" />
<glyph unicode="&#xe922;" glyph-name="home2" d="M512 928l-512-512 96-96 96 96v-416h256v192h128v-192h256v416l96-96 96 96-512 512zM512 512c-35.346 0-64 28.654-64 64s28.654 64 64 64c35.346 0 64-28.654 64-64s-28.654-64-64-64z" />
<glyph unicode="&#xe923;" glyph-name="home3" d="M1024 352l-192 192v288h-128v-160l-192 192-512-512v-32h128v-320h320v192h128v-192h320v320h128z" />
</font>
</defs>
</svg>
